主页 > 法治进行时 > 即时新闻 > > 不知不觉诱惑你 Frivolous.Lola.(1998).DVDRip

不知不觉诱惑你 Frivolous.Lola.(1998).DVDRip

来源:河北新闻网    2017-09-13 00:58 责任编辑: 小编

亲,您如果觉得不知不觉诱惑你 Frivolous.Lola.(1998).DVDRip这篇文章还不错,请推荐给您的朋友与您一起欣赏,点击这里复制分享地址,再次感谢您阅读本文章,本页下方有更多精彩内容,请您鉴赏!如果您喜欢不知不觉诱惑你 Frivolous.Lola.(1998).DVDRip这篇文章,请记住本站网址,以便下次阅读!

Unwittingly seduce you, Frivolous.Lola. (1998).DVDRip
种别:film-其他
状况:通俗资本
发表:2013-02-08 23:46:00
更新:2013-02-08 23:57:00电驴资本电驴资本简介资本介绍简介:
◎译  名 不知不觉引诱你
◎片  名 Frivolous Lola
◎年  代 1998
◎国  家 意大利
◎类  别 笑剧/恋爱
◎语  言 英语
◎字  幕 N/A
◎IMDB评分 5.0/10 - 1,319
◎IMDB链接 http://www.imdb.com/title/tt0174931/
◎文件格式 DivX5 + MP3
◎视频尺寸 576 x 336
◎文件大小 700 MB
◎片  长 97 Mins
◎导  演 丁度·巴拉斯 Tinto Brass
◎主  演 
Anna Ammirati ... Lola
Patrick Mower ... André
Max Parodi ... Masetto (as Mario Parodi)
Susanna Martinková ... Michelle
Antonio Salines ... 倀攀瀀è
Francesca Nunzi ... 圀椀氀洀愀
Vittorio Attene ... Ginetto
Laura Trotter ... Carmelina
Carlo Reali ... 吀漀渀椀
Maurizio Prudenzi ... 刀攀洀漀
Edith Rozanyai ... Carla
Alberto Capone ... Gildo
Serena Grandi ... 娀愀椀爀愀
Mirella Zardo
Osiride Pevarello
影片介绍
这是一部描述女性情欲和心思的笑剧,并没有明显的主题。不知不觉诱惑你,
绮年玉貌而又无邪听任的少女露娜(安娜阿美拉蒂饰),盼望得尝云雨滋味,多番索求却被思想保守的未婚夫马萨几回再三谢绝,不知不觉恋上了母亲的风骚恋人安德鲁,因此得以放肆所有越轨的理想,更被挑起了彭湃的愿望。当安德鲁欲与露娜睁开最终的情欲游戏之际,被露娜的母亲撞破功德。露娜不得已重投马萨的度量,却有意自揭早前险遭陌生人污辱的不愉快事件来刺激马萨。为求本相,马萨终于抛开忌讳,粗鲁地将露娜占领。但在婚礼举办当日,露娜仍时刻不忘安德鲁的影子,于是瞒着马萨,偷偷与安德鲁私会,发挥最后一次无可顺从的性感引诱……
幕后制造
人物简介
色情film阵线也不乏巨匠级的人物,号称“情色film天子”丁度·巴拉斯(Tinto Brass)就是这样几十年如一日奋斗在film一线的老夫。巴拉斯正如他的名字一样(Brass)自然是bra加ass了,他一直把自己的形象装扮成西区柯克似的反动形状,而且又一样的诟病就是爱好客串自己film里的脚色,而且拿自己的形象看成宣传品牌。
丁度·巴拉斯(Tinto Brass,1933年3月26日-- ),生长于意大利水城威尼斯,浪漫的环境加上意大利人文主义的文艺传统的陶冶使他生来就对人类最大的快活有着非同寻常的敏感。在拍摄情色片之前,巴拉斯是个尺度的艺术film青年,职业生涯的前十年,他拍摄的影片充斥前卫神怪的情节和梦幻般的超现实画面。
艺术途径
丁度·巴拉斯1970年的一部《嚎叫》(LUrlo)还入围了柏林影展,比赛金熊奖。1976年他接办拍摄第一部情色片《凯蒂夫人》(Salon Kitty),骄气十足的巴拉斯把脚本从新写了一遍,拍出一部更有内在和蔼质的影片,这让《阁楼》杂志的老教参鲍博·古乔内注意到了他,指名要他率领众“阁楼女郎”拍《罗马帝国艳情史》(Caligula)拍摄过程中,巴拉斯保持缩减影片的色情内容,与老板古乔内闹翻,被炒掉并被褫夺了剪辑权。不知不觉诱惑你,虽然如此,大获成功的《罗马帝国艳情史》照旧成为巴拉斯最著名的代表作。不久后巴拉斯幡然醒悟,色情才是自己想拍的东西,于是纵身投入情色片的寰宇,拍摄了十几部情色咭片。
作品评价
丁度·巴拉斯在自己的每部影片都着重夸大了女人的性感魅力,并且在片中常常应用多边的摄影技术,将片中美人和美景拍得浑然天成、竹苞松茂。而且他在影片中最惯长展现了女性对情欲的盼望,和对女性身材的赞扬对男性身材的美化和讥讽。欧洲人,特别是拉丁派的欧洲人,如法国、意大利,西班牙等国的艺术家,似乎是爱好用性来表达爱的理念。他们对人体的裸体美、性心思美的的崇尚和赞扬,几近可以说是至高无上,著名的雕塑“掷铁饼者”和“思想者”是男性阳刚与力气的展现,而“维纳斯女神”和拉斐尔的“丽达与天鹅’等,则充足展现了女性的阴柔之美,而丁度巴拉斯,这位逆时髦而行的老头,可能骨子里还有文艺复兴时代的遗风,他爱好展现的是女人的饱满。在意大利汗青上,人们对裸体美、性心思美的崇尚和赞扬就几近到了顶礼膜拜的水平,特别是起源于意大利文艺复兴运动,各类展现人体美的雕塑、绘画作品大批出现,如达芬奇的《岩间圣母》、《蒙娜丽莎》,米开朗基罗的《大卫》,拉斐尔的《丽达与天鹅》等,基本上都是以凸起的性特色来展现性之美,例如会用笔法、色彩夸大女性的第二特色,使画面加倍洋溢着高贵的美。虽然也存在一些带有色情成分的作品,夸大性反应、性场景等,但总的说来意大利人是经过性来表达对爱的理解,夸大爱的精神实质。
在巴拉斯导演的情色作品中,《罗马帝国艳情史》(Caligula)一片占领相当重要的位置。其实不能把这部影片看成是一部纯真的色情film,其在***的画面背后寄意着更加深入的东西。不知不觉诱惑你,影片依据卡利古拉国王的平生为线索,令人震惊地展现了他的平生,从更深的条理揭穿了权力给他带来的愿望的放肆间接致使了他的毁灭。片中充斥着大批的性爱描述,以揭穿卡利古拉的荒淫无道。最为壮观的是还有一幕人山肉海的乱交场景,令人瞠目结舌!不过在大多数的介绍中都会过分衬着影片的性爱部门,以致令人误以为这就是一部纯真的性爱描述影片,导演真实的意图只有在你看过之后才有可能真的体会到。仅就这一点而言,巴拉斯切实其实有高人的地方,香港的导演拍情色film多是出于商业利益,以娱乐性为主,而他则不但以情色披露自己的思想概念,还以情色寄意。
《黑天使》是一部依据作家BOITO的短篇小说《意识》改编的片子。丁度将全部故事从1865年的威尼斯和威洛纳之间的独立战斗改编成1945年威尼斯反法西斯奋斗的最后一年——社会主义共和国,SOLO共和国。剧中女主人公利维亚是一个性饥渴的,生活在紧张,孤单状况下的女性。男主人公赫马特则是一个美男子,异教徒。强壮的身材充斥了表示,异常暗昧,异常风骚。不知不觉诱惑你,这是一个含糊其词的脚色。在性角度上也是捉摸不定的。没有人晓得他到底想要什么。在这些肉体和色情的镜头里,有的是旷达和敏感的音调,有间接的,表示的成分。这部影片中有很多音乐片段,有充斥豪情的,自由自在的情感,也有关于战斗的急剧的音调,还有混杂着恋爱和特定时代的汗青紧张感的音调。影片以水城威尼斯为background,参加很多威尼斯元素。丁度的改编显然是成功的。
艺术特色
1、性与爱、情与色的分别。在巴拉斯的影片里,情色和色情的界线被折衷到难以鉴别的水平,无论是《罗马帝国艳情史》和《黑天使》(senso45)这样有着光鲜汗青background和政治主意的影片,还是《不知不觉引诱你》(Monella)、《豪情信箱》(Fermoposta)和《奸情》(Monamour)这样旨在描述两性关系的影片,都能被解读出丰富的内在。放肆的偷情野合、淫猥的窥视、摩肩接踵的乱交、毫无所惧的自慰等等都不能只被看做纯真的声色描述,情色既披露了他的概念,他还以情色寄意。不知不觉诱惑你,
2、对女性肉体的美化和对男性肉体的美化是巴拉斯film的另一个特色。他不惜应用庞杂的摄影技术、摸索各类光芒、角度和构图,就只为了拍出一副超等漂亮的女人体,一个漂亮的女性臀部。女性在他的影片里永久代表俏丽、性感、自动和公理,而男性则代表了丑恶、无私、无能和鄙陋。所以,丁度的影片中的女主角无一不是丰乳肥臀式的意大利女郎。这一点凸起展现在他对女性乳房、臀部、阴部的展现上。在《少妇的引诱》里,女主人公裸体坐在内室的打扮凳上,斜阳给房间里涂上了一层猩红色,女郎肥硕的臀部、性感的背部、暗昧的暖色调、窗外漂渺的圣马可大教堂,构成了一幅浑然天成的画面,观众只会感觉到美而不是淫。在《恋人,别为我呜咽》里,女主人公躺在床上,有背部特写和阴部特写——但大部门是中远镜头,这时候就会发觉女主角就像安格尔的那幅油画《大宫女》:浑圆、坚固饱满的圆形,付与女性的健康美。
社会评价
丁度巴拉斯以其独有的对性的灵敏度对待女性的情欲,无疑遭到很多女性观众的抵抗,可女性观众看了他的作品后,也不得不承认至少拍得很美。虽然丁度是以一种艺术的手段,论述性学的理念,且带有一丝对性爱的美感的夸大,但过于全裸,若干还带有一些色情的成分。这也许就是丁度的片子既不能象《九周半》《苦月亮》那样列为艺术的情色片,也不会把丁度的片子归为色情片的规模。不知不觉诱惑你,所以,丁度的片子虽然被人称为情色片巨匠,却始终进不了film艺术巨匠的行列。
代码General
Complete name : Monella.(aka.Frivolous.Lola).(1998).(English.Dubbed).DVDRip.DivX5-reevel.avi
Format : AVI
Format/Info : Audio Video Interleave
File size : 701 MiB
Duration : 1h 37mn
Overall bit rate : 1002 Kbps
Movie name : Monella aka Frivolous Lola
Director : Tinto Brass
Writing application : VirtualDubMod 1.4.13
Comment : Ripped By Reevel
Video
Format : MPEG-4 Visual
Format settings, BVOP : Yes
Format settings, QPel : No
Format settings, GMC : 2 warppoints
Format settings, Matrix : Default
Muxing mode : Packet Bitstream
Codec ID : DX50
Codec ID/Hint : DivX 5
Duration : 1h 37mn
Bit rate : 869 Kbps
Width : 576 pixels
Height : 336 pixels
Display aspect ratio : 16/9
Frame rate : 25.000 fps
Resolution : 8 bits
Scan type : Progressive
Bits/(Pixel*Frame) : 0.180
Stream size : 608 MiB (87%)
Writing library : DivX 5.0.2 (UTC 2002-05-16)
Audio
Format : MPEG Audio
Format version : Version 1
Format profile : Layer 3
Codec ID : 55
Codec ID/Hint : MP3
Duration : 1h 37mn
Bit rate mode : Variable
Bit rate : 120 Kbps
Nominal bit rate : 128 Kbps
Channel(s) : 2 channels
Sampling rate : 44.1 KHz
Resolution : 16 bits
Stream size : 84.2 MiB (12%)
Alignment : Aligned on interleaves
Interleave, duration : 26 ms (0.65 video frame)
Interleave, preload duration : 152 ms
Writing library : LAME3.93
Encoding settings : ABR
Language : undefined



本文原标题不知不觉诱惑你 Frivolous.Lola.(1998).DVDRip,来源自网友的自发分享,不代表本站立场,如出现版权等问题,请及时联系我们删除!请记住本站网址http://www.ycxczsgs.com/news/95368.html,以便下次阅读!

上一篇:毛概社会实践调查报告范文2015
下一篇:没有了